ettv anal arrow español the rookie tushy 18.12 1080p.mp4-ktr supernatural 2018 ita wwe seal team s02e12 The Gifted etrg porn ita bohemian A Star is born the walking dead hindi SEAL Team fgt evo marvel week The Big Bang Theory bohemian rhapsody ita star trek discovery español 1080p YIFY dtone ddr Etrg ethd great british bake off s09e10 Chicago PD S06E10 modern family bohemian rhapsody venom LUCIFER aquaman bumblebee mom manifest 1080p 2018 2160p Chicago pd UHD big bang theory español ita 2018 Vikings S05E17 the flash bbc vikings s05 luther 1080P it ıt 2017 arrow etmovies Ncis XXX game of thrones aquaman ita modern family s10e11 0 First Man Fear the walking dead YOU titans Star Trek Discovery tushyraw 1080p.mp4-ktr vikings doctor who 
Warning! Do not Download Without a VPN!
Your IP Address is .   Location is
Download and surf securely, stream unlimited and protect your personal data!
We strongly recommend using SpyOFF VPN!
Become Anonymous with SpyOFF
ETTV Recommended TV Shows
Gotham.S05E02.WEB.x264-TBS[ettv] torrent
The.Orville.S02E03.WEB.x264-TBS[ettv] torrent
Law.and.Order.SVU.S20E11.HDTV.x264-LEFT4HD[ettv] torrent
Future.Man.S02.720p.WEBRip.X264-SCENE[ettv] torrent

ETTV Recommended SD
The.Last.Boy.2019.HDRip.XviD.AC3-EVO torrent
The Legend Of Secret Pass.2019.HDRip.XviD.AC3-EVO[EtMovies] torrent
Welcome.Home.2018.BRRip.XViD-ETRG torrent
Pledge.2019.HDRip.XViD-ETRG torrent

ETTV Recommended HD
Time.Freak.2018.BluRay.1080p.HEVC.DTS-HD.MA5.1-DTOne torrent
Solis 2018 1080p GER Blu-ray HEVC DTS-HD MA 5 1-DTOne torrent
Speed Kills 2018 1080p Blu-ray HEVC DTS-HD MA 5 1-DTOne torrent
The Old Man And The Gun 2018.Multi.Bluray.1080p.x265.DTS-HDMA.5.1-DTOne torrent

ETTV Recommended UHD
Serenity.2005.Multi.UHD.2160p.Bluray.x265.HDR.DTS-HDMA.7.1.[En+Hi]-DTOne torrent
The.Hitmans.Bodyguard.2017.Multi.2160p.UHD.BluRay.x265.HDR.Atmos.7.1.[En+Hi]-DTOne torrent
How To Train Your Dragon 2010.Multi.2160p.UHD.Bluray.x265.DTS-X.7.1.[En+Hi+]-DTOne torrent
How To Train Your Dragon - 2 2014.Multi.2160p.UHD.Bluray.x265.DTS-X.7.1.[En+Desi+]-DTOne torrent

ETTV Recommended Cam
Bumblebee 2018 NEW HDTS x264 AC3-ETRG torrent
Aquaman.2018.BLURRED.HDTC.x264.AC3-ETRG torrent
Once Upon a Deadpool 2018 NEW 720p HDCAM-1XBET torrent
Holmes.&.Watson.HDCAM.XViD.AC3-ETRG torrent

ETTV Recommended Foreign
Afsar.(2018).1080p.WEB-DL.AVC. DDP.5.1.Esubs-DTOne torrent
Carry.On.Jatta.2.(2018).1080p.WEB-DL.AVC. DDP.5.1.Esub-DTOne torrent
Padmaavat 2018.GER.Blu-Ray.1080p.HEVC.TrueHD.7.1-DTOne torrent
Tera Intezaar.2017.1080p.AMZN.WeB.DL.H264.DDP.5.1.DTOne torrent


Download Torrent "Lethal Weapon S03E11 (1080p AMZN WEB-DL x265 HEVC 10bit AC3 5.1 Qman) [UTR]"

IMDB Details
Description:

N/A

Genre:

N/A

Download Torrent (Magnet)
Download Torrent (File)
Seeds: 2
Leechers: 0
Completed:
Last Checked: 11-01-2019 16:26:30


Loading...
Details
Title:Lethal Weapon S03E11 (1080p AMZN WEB-DL x265 HEVC 10bit AC3 5.1 Qman) [UTR]
Description:




Media Information
General
Format                                   : Matroska
Format version                           : Version 4 / Version 2
File size                                : 944 MiB
Duration                                 : 43 min 46 s
Overall bit rate                         : 3 014 kb/s
Encoded date                             : UTC 2019-01-11 02:46:01
Writing application                      : mkvmerge v30.1.0 ('Forever And More') 64-bit
Writing library                          : libebml v1.3.6 + libmatroska v1.4.9

Video
ID                                       : 1
Format                                   : HEVC
Format/Info                              : High Efficiency Video Coding
Format profile                           : Main [email protected]@Main
Codec ID                                 : V_MPEGH/ISO/HEVC
Duration                                 : 43 min 46 s
Bit rate                                 : 2 372 kb/s
Width                                    : 1 920 pixels
Height                                   : 1 080 pixels
Display aspect ratio                     : 16:9
Frame rate mode                          : Constant
Frame rate                               : 23.976 (24000/1001) FPS
Color space                              : YUV
Chroma subsampling                       : 4:2:0
Bit depth                                : 10 bits
Bits/(Pixel*Frame)                       : 0.048
Stream size                              : 743 MiB (79%)
Writing library                          : x265 3.0_RC+2-8f1c154aae5e:[Windows][GCC 8.2.0][64 bit] 10bit
Encoding settings                        : cpuid=1111039 / frame-threads=2 / numa-pools=4 / wpp / no-pmode / no-pme / no-psnr / no-ssim / log-level=2 / input-csp=1 / input-res=1920x1080 / interlace=0 / total-frames=62971 / level-idc=0 / high-tier=1 / uhd-bd=0 / ref=4 / no-allow-non-conformance / no-repeat-headers / annexb / no-aud / no-hrd / info / hash=0 / no-temporal-layers / open-gop / min-keyint=23 / keyint=250 / gop-lookahead=0 / bframes=8 / b-adapt=2 / b-pyramid / bframe-bias=0 / rc-lookahead=50 / lookahead-slices=4 / scenecut=40 / radl=0 / no-splice / no-intra-refresh / ctu=64 / min-cu-size=8 / no-rect / no-amp / max-tu-size=32 / tu-inter-depth=1 / tu-intra-depth=1 / limit-tu=0 / rdoq-level=2 / dynamic-rd=0.00 / no-ssim-rd / signhide / no-tskip / nr-intra=0 / nr-inter=0 / no-constrained-intra / no-strong-intra-smoothing / max-merge=3 / limit-refs=3 / limit-modes / me=3 / subme=3 / merange=57 / temporal-mvp / weightp / no-weightb / no-analyze-src-pics / deblock=1:1 / no-sao / no-sao-non-deblock / rd=4 / no-early-skip / no-rskip / no-fast-intra / no-tskip-fast / no-cu-lossless / no-b-intra / no-splitrd-skip / rdpenalty=0 / psy-rd=1.40 / psy-rdoq=1.00 / no-rd-refine / no-lossless / cbqpoffs=0 / crqpoffs=0 / rc=crf / crf=21.0 / qcomp=0.60 / qpstep=4 / stats-write=0 / stats-read=0 / ipratio=1.40 / pbratio=1.30 / aq-mode=2 / aq-strength=1.00 / cutree / zone-count=0 / no-strict-cbr / qg-size=32 / no-rc-grain / qpmax=69 / qpmin=0 / no-const-vbv / sar=0 / overscan=0 / videoformat=5 / range=0 / colorprim=2 / transfer=2 / colormatrix=2 / chromaloc=0 / display-window=0 / max-cll=0,0 / min-luma=0 / max-luma=1023 / log2-max-poc-lsb=8 / vui-timing-info / vui-hrd-info / slices=1 / no-opt-qp-pps / no-opt-ref-list-length-pps / no-multi-pass-opt-rps / scenecut-bias=0.05 / no-opt-cu-delta-qp / no-aq-motion / no-hdr / no-hdr-opt / no-dhdr10-opt / no-idr-recovery-sei / analysis-reuse-level=5 / scale-factor=0 / refine-intra=0 / refine-inter=0 / refine-mv=0 / refine-ctu-distortion=0 / no-limit-sao / ctu-info=0 / no-lowpass-dct / refine-analysis-type=0 / copy-pic=1 / max-ausize-factor=1.0 / no-dynamic-refine / no-single-sei / no-hevc-aq / qp-adaptation-range=1.00
Language                                 : English
Default                                  : Yes
Forced                                   : No

Audio
ID                                       : 2
Format                                   : E-AC-3
Format/Info                              : Enhanced Audio Coding 3
Format settings, Endianness              : Big
Codec ID                                 : A_EAC3
Duration                                 : 43 min 46 s
Bit rate mode                            : Constant
Bit rate                                 : 640 kb/s
Channel(s)                               : 6 channels
Channel positions                        : Front: L C R, Side: L R, LFE
Sampling rate                            : 48.0 kHz
Frame rate                               : 187.500 FPS (256 spf)
Compression mode                         : Lossy
Stream size                              : 200 MiB (21%)
Language                                 : English
Default                                  : Yes
Forced                                   : No

Subtitle
ID                                       : 3
Format                                   : UTF-8
Codec ID                                 : S_TEXT/UTF8
Codec ID/Info                            : UTF-8 Plain Text
Duration                                 : 43 min 7 s
Bit rate                                 : 94 b/s
Count of elements                        : 948
Stream size                              : 29.7 KiB (0%)
Language                                 : English
Default                                  : Yes
Forced                                   : No

Source Information
Release: Unknown Source/NO-GROUP

Category:TV > HEVC/x265
Lang:English  English
Total Size:944 MB
Info Hash:8284bae596c7081f2a895fe62882da9c4e9d8558
Added By:UTR
Date Added:11-01-2019 16:26:22

Files

File List: 
 File Size
Lethal.Weapon.S03E11.1080p.AMZN.WEB-DL.x265.10bit.EAC3.6.0-Qman[UTR].mkv944 MB



Loading...
Comments

There are currently no comments. Be the first one to write something !

Disclaimer: None of the files shown here are actually hosted or transmitted by this server. The links are provided solely by this site's users. The site moderation is also a service provided by the site's users. The administrator of this site (ettv.tv) cannot be held responsible for what its users post, or any other actions of its users. You may not use this site to distribute or download any material when you do not have the legal rights to do so. It is your own responsibility to adhere to these terms.

Sitemap